squallzhao
一代宗师

[更 早] [欧美] [喜剧] [WEB-1080P] 雌雄大盗 The.Cartier.Affair.1984.1080p.AMZN.WEBRip.DDP2.0.x264-NTb 6.77GB

-->

帖子完整标题:雌雄大盗 The.Cartier.Affair.1984.1080p.AMZN.WEBRip.DDP2.0.x264-NTb 6.77GB



◎译  名 雌雄大盗
◎片  名 The Cartier Affair
◎年  代 1984
◎产  地 美国
◎类  别 喜剧 / 犯罪
◎语  言 英语
◎上映日期 1984
◎豆瓣评分 /10 from 0 users
◎豆瓣链接 https://movie.douban.com/subject/5049444/
◎片  长 96分钟
◎导  演 罗德·霍尔卡穆 Rod Holcomb
◎主  演 琼·柯琳斯 Joan Collins
      大卫·哈塞尔霍夫 David Hasselhoff
      埃德·劳特尔 Ed Lauter
      查尔斯·纳佩尔 Charles Napier
      特利·萨瓦拉斯 Telly Savalas
      路易莎·莫里茨 Louisa Moritz
      John Richard Petersen John Richard Petersen
      Steve Peck Steve Peck
      Federico Roberto Federico Roberto
      Liz Sheridan Liz Sheridan
      Donald Wayne Donald Wayne
      丽塔·塔格特 Rita Taggart
      Paul Marin Paul Marin
      Hilly Hicks Hilly Hicks
      雷蒙德·辛格 Raymond Singer
      哈利·雷恩斯 Harry Reems
      约翰·布卢姆 John Bloom
      乔丹·查尼 Jordan Charney
      Randi Brooks Randi Brooks
      Patricia Elliott Patricia Elliott
      John Del Regno John Del Regno
      Jay Gerber Jay Gerber
      John Gibson John Gibson

◎标  签 美国电影 | 欧美电影

◎简  介

  暂无相关剧情介绍

Video
ID : 1
Format : AVC
Format/Info : Advanced Video Codec
Format profile : [email protected]
Format settings : CABAC / 4 Ref Frames
Format settings, CABAC : Yes
Format settings, Reference frames : 4 frames
Codec ID : V_MPEG4/ISO/AVC
Duration : 1 h 36 min
Bit rate mode : Constant
Bit rate : 10 000 kb/s
Width : 1 920 pixels
Height : 1 080 pixels
Display aspect ratio : 16:9
Frame rate mode : Constant
Frame rate : 24.000 FPS
Color space : YUV
Chroma subsampling : 4:2:0
Bit depth : 8 bits
Scan type : Progressive
Bits/(Pixel*Frame) : 0.201
Stream size : 6.62 GiB (98%)
Default : Yes
Forced : No
Color range : Limited
Color primaries : BT.709
Transfer characteristics : BT.709
Matrix coefficients : BT.709

Audio
ID : 2
Format : E-AC-3
Format/Info : Enhanced AC-3
Commercial name : Dolby Digital Plus
Codec ID : A_EAC3
Duration : 1 h 36 min
Bit rate mode : Constant
Bit rate : 224 kb/s
Channel(s) : 2 channels
Channel layout : L R
Sampling rate : 48.0 kHz
Frame rate : 31.250 FPS (1536 SPF)
Compression mode : Lossy
Stream size : 154 MiB (2%)
Language : English
Service kind : Complete Main
Default : Yes
Forced : No

Text #1
ID : 3
Format : UTF-8
Codec ID : S_TEXT/UTF8
Codec ID/Info : UTF-8 Plain Text
Duration : 1 h 34 min
Bit rate : 77 b/s
Count of elements : 1766
Stream size : 53.1 KiB (0%)
Language : English
Default : No
Forced : No

Text #2
ID : 4
Format : UTF-8
Codec ID : S_TEXT/UTF8
Codec ID/Info : UTF-8 Plain Text
Duration : 1 h 35 min
Bit rate : 79 b/s
Count of elements : 1896
Stream size : 56.0 KiB (0%)
Title : SDH
Language : English
Default : No
Forced : No





1 个附件 售价 大小 下载 时间

The.Cartier.Affair.1984.1080p.AMZN.WEBRip.DDP2.0.x264-NTb.torrent 0 金币 17.57K 910 次 1月前

#1楼
发帖时间:2021-11-27 17:31:34   |   回复数:1
popeye69
一派掌门
谢谢楼主分享!
1月前 #2楼
游客组