fg603603
一代宗师

[2008] [其他] [惊悚] [WEB-1080P] 警报 Alarm.2008.1080p.AMZN.WEBRip.DDP2.0.x264-WELP 6.67GB

-->

帖子完整标题:警报 Alarm.2008.1080p.AMZN.WEBRip.DDP2.0.x264-WELP 6.67GB



◎译  名 警报
◎片  名 Alarm
◎年  代 2008
◎产  地 爱尔兰
◎类  别 惊悚
◎语  言 英语
◎上映日期 2008
◎豆瓣评分 /10 from 0 users
◎豆瓣链接 https://movie.douban.com/subject/5188470/
◎片  长 Germany: 105 分钟(European Film Market)
◎导  演 杰拉德·斯坦布里奇 Gerard Stembridge
◎主  演 艾丹·特纳 Aidan Turner

◎标  签 AidanTurner | 惊悚 | 爱尔兰 | 英国 | 电影 | 爱尔兰电影 | 悬疑 | ?

◎简  介

  这个当代心理惊悚片讲述了莫莉的故事,在她父亲的死亡与一个新的开始,郊区田园成为越来越险恶的莫莉报复的地方。

Video
ID : 1
Format : AVC
Format/Info : Advanced Video Codec
Format profile : [email protected]
Format settings : CABAC / 4 Ref Frames
Format settings, CABAC : Yes
Format settings, Reference frames : 4 frames
Codec ID : V_MPEG4/ISO/AVC
Duration : 1 h 40 min
Bit rate mode : Constant
Bit rate : 9 293 kb/s
Nominal bit rate : 10 000 kb/s
Width : 1 920 pixels
Height : 1 040 pixels
Display aspect ratio : 1.85:1
Frame rate mode : Constant
Frame rate : 25.000 FPS
Color space : YUV
Chroma subsampling : 4:2:0
Bit depth : 8 bits
Scan type : Progressive
Bits/(Pixel*Frame) : 0.186
Stream size : 6.51 GiB (98%)
Default : Yes
Forced : No
Color range : Limited
Color primaries : BT.709
Transfer characteristics : BT.709
Matrix coefficients : BT.709

Audio
ID : 2
Format : E-AC-3
Format/Info : Enhanced AC-3
Commercial name : Dolby Digital Plus
Codec ID : A_EAC3
Duration : 1 h 40 min
Bit rate mode : Constant
Bit rate : 224 kb/s
Channel(s) : 2 channels
Channel layout : L R
Sampling rate : 48.0 kHz
Frame rate : 31.250 FPS (1536 SPF)
Compression mode : Lossy
Stream size : 161 MiB (2%)
Language : English
Service kind : Complete Main
Default : Yes
Forced : No

Text #1
ID : 3
Format : UTF-8
Codec ID : S_TEXT/UTF8
Codec ID/Info : UTF-8 Plain Text
Duration : 1 h 36 min
Bit rate : 68 b/s
Count of elements : 2508
Stream size : 48.0 KiB (0%)
Language : English
Default : No
Forced : No

Text #2
ID : 4
Format : UTF-8
Codec ID : S_TEXT/UTF8
Codec ID/Info : UTF-8 Plain Text
Duration : 1 h 37 min
Bit rate : 77 b/s
Count of elements : 2855
Stream size : 55.1 KiB (0%)
Title : SDH
Language : English
Default : No
Forced : No





1 个附件 售价 大小 下载 时间

Alarm.2008.1080p.AMZN.WEBRip.DDP2.0.x264-WELP.torrent 0 金币 17.29K 378 次 4天前

#1楼
发帖时间:2021-11-25 15:05:45   |   回复数:1
popeye69
一派掌门
感谢楼主分享。
4天前 #2楼
游客组