fg603603
一代宗师

[更 早] [其他] [剧情] [BD-1080P] 迪林格尔之死 Dillinger.Is.Dead.1969.1080p.BluRay.x264-USURY 9.74GB

-->

帖子完整标题:迪林格尔之死 Dillinger.Is.Dead.1969.1080p.BluRay.x264-USURY 9.74GB



◎译  名 迪林格尔之死/Dillinger Is Dead/迪林杰已死
◎片  名 Dillinger è morto
◎年  代 1969
◎产  地 意大利
◎类  别 剧情 / 犯罪
◎语  言 意大利语
◎上映日期 1969-01-23
◎豆瓣评分 7.4/10 from 409 users
◎豆瓣链接 https://movie.douban.com/subject/1308666/
◎片  长 95分钟
◎导  演 马可·费雷里 Marco Ferreri
◎编  剧 马可·费雷里 Marco Ferreri
◎主  演 米歇尔·皮科利 Michel Piccoli
      安妮塔·帕里博格 Anita Pallenberg
      Gino Lavagetto Gino Lavagetto
      安妮·吉拉尔多 Annie Girardot
      阿德里亚诺·阿普拉 Adriano Aprà
      凯荷·安德烈 Carole André

◎标  签 意大利 | CC | 马尔科·费雷里 | 1960s | Marco_Ferreri | 意大利电影 | 1969 | 犯罪

◎简  介

  《迪林格尔之死》可以算作是费雷里最成功的影片之一。故事叙述一个男人回到家,看到患偏头痛的妻子躺在床上睡着了。在影片和事件实际发生的时间相吻合的情况下,观众似乎看到了这个人每天的动作行为。他做饭,去花园,看电视,放映自己业余拍摄的影片,然后从一张报导迪林格尔死了的旧报纸裹着的包里取出一把手枪,仔仔细细地给枪上了油,并把它修好。在和女仆调情后,他走进卧室,用枪把妻子打死。第二天清晨他在一条开往塔希提岛的游艇上找到了一个职位。除了开头和多半是空想出来的结尾外,影片对日常生活细致入微的观察十分吸引人。这些观察使影片产生了一种与传统的电影剧作理论无关的紧张气氛,而且通过对细节的写实主义的描绘逐渐揭示了人与外部世界的关系。

◎获奖情况

  第22届戛纳电影节 ?(1969)
  主竞赛单元金棕榈奖(提名) 马可·费雷里

Video
ID : 1
Format : AVC
Format/Info : Advanced Video Codec
Format profile : [email protected]
Format settings : CABAC / 5 Ref Frames
Format settings, CABAC : Yes
Format settings, Reference frames : 5 frames
Codec ID : V_MPEG4/ISO/AVC
Duration : 1 h 35 min
Bit rate : 14.5 Mb/s
Width : 1 440 pixels
Height : 1 080 pixels
Display aspect ratio : 4:3
Frame rate mode : Constant
Frame rate : 24.000 FPS
Color space : YUV
Chroma subsampling : 4:2:0
Bit depth : 8 bits
Scan type : Progressive
Bits/(Pixel*Frame) : 0.387
Stream size : 9.61 GiB (99%)
Writing library : x264 core 164 r3075 66a5bc1
Encoding settings : cabac=1 / ref=5 / deblock=1:-3:-3 / analyse=0x3:0x133 / me=umh / subme=10 / psy=1 / psy_rd=1.00:0.15 / mixed_ref=1 / me_range=24 / chroma_me=1 / trellis=2 / 8x8dct=1 / cqm=0 / deadzone=21,11 / fast_pskip=1 / chroma_qp_offset=-3 / threads=18 / lookahead_threads=3 / sliced_threads=0 / nr=0 / decimate=1 / interlaced=0 / bluray_compat=0 / constrained_intra=0 / bframes=8 / b_pyramid=2 / b_adapt=2 / b_bias=0 / direct=3 / weightb=1 / open_gop=0 / weightp=2 / keyint=250 / keyint_min=24 / scenecut=40 / intra_refresh=0 / rc_lookahead=60 / rc=crf / mbtree=1 / crf=21.0 / qcomp=0.60 / qpmin=0 / qpmax=69 / qpstep=4 / ip_ratio=1.40 / aq=3:0.50
Language : English
Default : Yes
Forced : No
Color range : Limited
Matrix coefficients : BT.709

Audio
ID : 2
Format : FLAC
Format/Info : Free Lossless Audio Codec
Codec ID : A_FLAC
Duration : 1 h 35 min
Bit rate mode : Variable
Bit rate : 198 kb/s
Channel(s) : 2 channels
Channel layout : L R
Sampling rate : 48.0 kHz
Frame rate : 11.719 FPS (4096 SPF)
Bit depth : 16 bits
Compression mode : Lossless
Stream size : 134 MiB (1%)
Writing library : libFLAC 1.2.1 (UTC 2007-09-17)
Language : Italian
Default : Yes
Forced : No

Text #1
ID : 3
Format : UTF-8
Codec ID : S_TEXT/UTF8
Codec ID/Info : UTF-8 Plain Text
Duration : 1 h 32 min
Bit rate : 10 b/s
Count of elements : 225
Stream size : 7.39 KiB (0%)
Title : English
Language : English
Default : Yes
Forced : Yes

Text #2
ID : 4
Format : PGS
Muxing mode : zlib
Codec ID : S_HDMV/PGS
Codec ID/Info : Picture based subtitle format used on BDs/HD-DVDs
Duration : 16 s 666 ms
Bit rate : 3 975 b/s
Count of elements : 4
Stream size : 8.09 KiB (0%)
Title : Italian forced
Language : Italian
Default : No
Forced : No

Text #3
ID : 5
Format : PGS
Muxing mode : zlib
Codec ID : S_HDMV/PGS
Codec ID/Info : Picture based subtitle format used on BDs/HD-DVDs
Duration : 1 h 32 min
Bit rate : 1 394 b/s
Count of elements : 510
Stream size : 949 KiB (0%)
Title : Italian
Language : Italian
Default : No
Forced : No

Text #4
ID : 6
Format : PGS
Muxing mode : zlib
Codec ID : S_HDMV/PGS
Codec ID/Info : Picture based subtitle format used on BDs/HD-DVDs
Duration : 1 h 34 min
Bit rate : 2 043 b/s
Count of elements : 736
Stream size : 1.38 MiB (0%)
Title : Italian SDH
Language : Italian
Default : No
Forced : No

Menu
00:00:00.000 : en:00:00:00.000
00:06:38.958 : en:00:06:38.958
00:14:01.500 : en:00:14:01.500
00:28:32.042 : en:00:28:32.042
00:35:57.000 : en:00:35:57.000
00:48:04.250 : en:00:48:04.250
00:59:24.667 : en:00:59:24.667
01:13:29.833 : en:01:13:29.833
01:24:55.583 : en:01:24:55.583





1 个附件 售价 大小 下载 时间

Dillinger.Is.Dead.1969.1080p.BluRay.x264-USURY.torrent 0 金币 25.16K 574 次 1月前

#1楼
发帖时间:2021-10-23 17:56:51   |   回复数:0
游客组