topgood
一派掌门

[更 早] [其他] [剧情] [BD-1080P] 访谈录 Intervista.1987.1080p.BluRay.x264-USURY 13.41GB

-->

帖子完整标题:访谈录 Intervista.1987.1080p.BluRay.x264-USURY 13.41GB



◎译  名 访谈录/Fellini's Intervista/费里尼的剪贴簿(台)/追访费里尼(港)
◎片  名 Intervista
◎年  代 1987
◎产  地 意大利
◎类  别 剧情 / 喜剧 / 奇幻
◎语  言 意大利语,日语,英语
◎上映日期 1987-10-01(意大利)
◎豆瓣评分 8.0/10 from 2315 users
◎豆瓣链接 https://movie.douban.com/subject/1303528/
◎片  长 105分钟
◎导  演 费德里科·费里尼 Federico Fellini
◎编  剧 费德里科·费里尼 Federico Fellini
◎主  演 赛尔乔·鲁比尼 Sergio Rubini
      安东内拉·蓬西亚尼 Antonella Ponziani
      Paola Liguori Paola Liguori
      拉腊·文德尔 Lara Wendel
      安东尼奥·坎塔福拉 Antonio Cantafora
      Nadia Ottaviani Nadia Ottaviani
      安妮塔·艾克伯格 Anita Ekberg
      马塞洛·马斯楚安尼 Marcello Mastroianni
      Christian Borromeo Christian Borromeo
      Lionello Pio Di Savoia Lionello Pio Di Savoia
      阿德里亚娜·法切蒂 Adriana Facchetti
      埃托雷·杰里 Ettore Geri
      伊娃·格里茂迪 Eva Grimaldi
      Francesca Reggiani Francesca Reggiani
      Patrizia Sacchi Patrizia Sacchi
      多米齐安诺·阿克安格尼 Domiziano Arcangeli
      Dario Casalini Dario Casalini
      托尼诺·德里·戈里 Tonino Delli Colli
      费德里科·费里尼 Federico Fellini
       Riccardo Onorato

◎标  签 意大利 | 费里尼 | 费德里科·费里尼 | 1987 | FedericoFellini | 意大利电影 | 传记 | 1980s

◎简  介

  如果说《想当年》是费里尼对少年时代的回忆,《八部半》是对他中年创作危机的记载,《罗马》是对他所爱的城市的礼赞,那么本片就是他对Cinecitta电影厂的颂歌。
  
  影片将回忆、嘲讽、自省、幻想等元素融合在一起,让我们见识了镜头前后的各种人物。影片高潮是《甜蜜的生活》的重映把片中主角重新聚集一堂,颇有一点大师主掌央视《同一首歌》的味道。
  
  第40届戛纳电影节(1987)  40周年奖  费德里科·费里尼
  
  第13届凯撒奖(1988)  凯撒奖-最佳外国电影(提名)  费德里科·费里尼

◎获奖情况

  第40届戛纳电影节 ?(1987)
  40周年纪念奖 费德里科·费里尼

Video
ID : 1
Format : AVC
Format/Info : Advanced Video Codec
Format profile : [email protected]
Format settings : CABAC / 5 Ref Frames
Format settings, CABAC : Yes
Format settings, Reference frames : 5 frames
Codec ID : V_MPEG4/ISO/AVC
Duration : 1 h 47 min
Bit rate : 17.3 Mb/s
Width : 1 480 pixels
Height : 1 080 pixels
Display aspect ratio : 1.370
Frame rate mode : Constant
Frame rate : 23.976 (24000/1001/189150) FPS
Color space : YUV
Chroma subsampling : 4:2:0
Bit depth : 8 bits
Scan type : Progressive
Bits/(Pixel*Frame) : 0.450
Stream size : 13.0 GiB (97%)
Writing library : x264 core 164 r3075 66a5bc1
Encoding settings : cabac=1 / ref=5 / deblock=1:-3:-3 / analyse=0x3:0x133 / me=umh / subme=10 / psy=1 / psy_rd=1.00:0.15 / mixed_ref=1 / me_range=24 / chroma_me=1 / trellis=2 / 8x8dct=1 / cqm=0 / deadzone=21,11 / fast_pskip=1 / chroma_qp_offset=-3 / threads=18 / lookahead_threads=3 / sliced_threads=0 / nr=0 / decimate=1 / interlaced=0 / bluray_compat=0 / constrained_intra=0 / bframes=8 / b_pyramid=2 / b_adapt=2 / b_bias=0 / direct=3 / weightb=1 / open_gop=0 / weightp=2 / keyint=250 / keyint_min=23 / scenecut=40 / intra_refresh=0 / rc_lookahead=60 / rc=crf / mbtree=1 / crf=19.5 / qcomp=0.60 / qpmin=0 / qpmax=69 / qpstep=4 / ip_ratio=1.40 / aq=3:0.50
Language : English
Default : Yes
Forced : No

Audio
ID : 2
Format : FLAC
Format/Info : Free Lossless Audio Codec
Codec ID : A_FLAC
Duration : 1 h 47 min
Bit rate mode : Variable
Bit rate : 569 kb/s
Channel(s) : 1 channel
Channel layout : C
Sampling rate : 48.0 kHz
Frame rate : 11.719 FPS (4096 SPF)
Bit depth : 24 bits
Compression mode : Lossless
Stream size : 439 MiB (3%)
Writing library : libFLAC 1.2.1 (UTC 2007-09-17)
Language : Italian
Default : Yes
Forced : No

Text #1
ID : 3
Format : UTF-8
Codec ID : S_TEXT/UTF8
Codec ID/Info : UTF-8 Plain Text
Duration : 1 h 42 min
Bit rate : 71 b/s
Count of elements : 1506
Stream size : 54.2 KiB (0%)
Title : English
Language : English
Default : Yes
Forced : Yes

Text #2
ID : 4
Format : PGS
Muxing mode : zlib
Codec ID : S_HDMV/PGS
Codec ID/Info : Picture based subtitle format used on BDs/HD-DVDs
Duration : 1 h 42 min
Bit rate : 10.3 kb/s
Count of elements : 3012
Stream size : 7.55 MiB (0%)
Title : English
Language : English
Default : No
Forced : No

Menu
00:00:00.000 : en:00:00:00.000
00:07:05.967 : en:00:07:05.967
00:13:28.266 : en:00:13:28.266
00:17:59.912 : en:00:17:59.912
00:20:54.086 : en:00:20:54.086
00:27:13.257 : en:00:27:13.257
00:31:20.045 : en:00:31:20.045
00:36:14.172 : en:00:36:14.172
00:40:09.574 : en:00:40:09.574
00:47:08.701 : en:00:47:08.701
00:56:18.625 : en:00:56:18.625
01:05:27.674 : en:01:05:27.674
01:14:48.609 : en:01:14:48.609
01:27:34.916 : en:01:27:34.916
01:34:03.888 : en:01:34:03.888
01:38:23.689 : en:01:38:23.689
01:45:06.842 : en:01:45:06.842





1 个附件 售价 大小 下载 时间

Intervista.1987.1080p.BluRay.x264-USURY.torrent 0 金币 17.56K 728 次 9天前

#1楼
发帖时间:2021-10-14 09:32:17   |   回复数:0
游客组