topgood
一派掌门

[更 早] [欧美] [喜剧] [WEB-1080P] 怪物家族2:人无完人 Monster.Family.2.2021.1080p.NOW.WEBRip.DDP5.1.x264-QOQ 5.55GB

-->

帖子完整标题:怪物家族2:人无完人 Monster.Family.2.2021.1080p.NOW.WEBRip.DDP5.1.x264-QOQ 5.55GB



◎译  名 怪物家族2:人无完人
◎片  名 Monster Family 2: Nobody is Perfect
◎年  代 2021
◎产  地 美国
◎类  别 喜剧 / 动画 / 家庭
◎语  言 英语
◎上映日期 2021-10-28(美国)
◎豆瓣评分 /10 from 0 users
◎豆瓣链接 https://movie.douban.com/subject/35603688/
◎导  演 霍尔格·塔佩 Holger Tappe
◎编  剧 大卫·萨菲尔 David Safier
◎主  演 杰西卡·布朗·芬德利 Jessica Brown Findlay
      艾米丽·凯里 Emily Carey
      尼克·弗罗斯特 Nick Frost

◎标  签 WK

◎简  介

  To free Baba Yaga and Renfield from the clutches of Monster Hunter Mila Starr, the Wishbone Family once more transforms into a Vampire, Frankenstein's Monster, a Mummy and a Werewolf. Aided and abetted by their three pet bats, our Monster Family zooms around the world again to save their friends, make new monstrous acquaintances and finally come to the realization that 'Nobody's Perfect' - even those with flaws can find happiness.

Video
ID : 1
Format : AVC
Format/Info : Advanced Video Codec
Format profile : [email protected]
Format settings : CABAC / 2 Ref Frames
Format settings, CABAC : Yes
Format settings, Reference frames : 2 frames
Codec ID : V_MPEG4/ISO/AVC
Duration : 1 h 39 min
Bit rate mode : Constant
Bit rate : 7 830 kb/s
Width : 1 920 pixels
Height : 1 080 pixels
Display aspect ratio : 16:9
Frame rate mode : Constant
Frame rate : 25.000 FPS
Color space : YUV
Chroma subsampling : 4:2:0
Bit depth : 8 bits
Scan type : Progressive
Bits/(Pixel*Frame) : 0.151
Stream size : 5.42 GiB (98%)
Default : Yes
Forced : No

Audio
ID : 2
Format : E-AC-3
Format/Info : Enhanced AC-3
Commercial name : Dolby Digital Plus
Codec ID : A_EAC3
Duration : 1 h 39 min
Bit rate mode : Constant
Bit rate : 192 kb/s
Channel(s) : 6 channels
Channel layout : L R C LFE Ls Rs
Sampling rate : 48.0 kHz
Frame rate : 31.250 FPS (1536 SPF)
Compression mode : Lossy
Stream size : 136 MiB (2%)
Language : English
Service kind : Complete Main
Default : Yes
Forced : No

Text #1
ID : 3
Format : UTF-8
Codec ID : S_TEXT/UTF8
Codec ID/Info : UTF-8 Plain Text
Duration : 1 h 36 min
Bit rate : 58 b/s
Count of elements : 1294
Stream size : 41.6 KiB (0%)
Language : English
Default : No
Forced : No

Text #2
ID : 4
Format : UTF-8
Codec ID : S_TEXT/UTF8
Codec ID/Info : UTF-8 Plain Text
Duration : 1 h 37 min
Bit rate : 65 b/s
Count of elements : 1461
Stream size : 46.4 KiB (0%)
Title : SDH
Language : English
Default : No
Forced : No

Menu
01:32:52.000 : en:Credits





1 个附件 售价 大小 下载 时间

Monster.Family.2.2021.1080p.NOW.WEBRip.DDP5.1.x264-QOQ.torrent 0 金币 14.51K 1204 次 1月前

#1楼
发帖时间:2021-10-23 09:21:39   |   回复数:1
sxp709
一派掌门
感谢楼主分享
1月前 #2楼
游客组