fg603603
一代宗师

[更 早] [其他] [其他] [WEB-1080P] 朝鲜:生活中的一天 North.Korea.A.Day.in.the.Life.2004.KOREAN.1080p.AMZN.WEBRip.DDP2.0.x26

-->

帖子完整标题:朝鲜:生活中的一天 North.Korea.A.Day.in.the.Life.2004.KOREAN.1080p.AMZN.WEBRip.DDP2.0.x264-TEPES 2.91GB



◎译  名 朝鲜:生活中的一天/North Korea: A Day in the Life
◎片  名 Noord-Korea: Een dag uit het leven
◎年  代 2004
◎产  地 荷兰
◎类  别 纪录片
◎语  言 韩语
◎上映日期 2004-04-27
◎豆瓣评分 7.0/10 from 244 users
◎豆瓣链接 https://movie.douban.com/subject/1428226/
◎片  长 48 分钟

◎标  签 纪录片 | 朝鲜 | 荷兰 | 北朝鲜 | 政治 | 2004 | 荷兰电影 | 纪录

◎简  介

  一个朝鲜家庭在普通的一天里的生活。

Video
ID : 1
Format : AVC
Format/Info : Advanced Video Codec
Format profile : [email protected]
Format settings : CABAC / 4 Ref Frames
Format settings, CABAC : Yes
Format settings, Reference frames : 4 frames
Codec ID : V_MPEG4/ISO/AVC
Duration : 48 min 9 s
Bit rate mode : Constant
Bit rate : 8 430 kb/s
Nominal bit rate : 10 000 kb/s
Width : 1 920 pixels
Height : 1 080 pixels
Display aspect ratio : 16:9
Frame rate mode : Constant
Frame rate : 25.000 FPS
Color space : YUV
Chroma subsampling : 4:2:0
Bit depth : 8 bits
Scan type : Progressive
Bits/(Pixel*Frame) : 0.163
Stream size : 2.84 GiB (97%)
Language : Korean
Default : Yes
Forced : No
Color range : Limited
Color primaries : BT.709
Transfer characteristics : BT.709
Matrix coefficients : BT.709

Audio
ID : 2
Format : E-AC-3
Format/Info : Enhanced AC-3
Commercial name : Dolby Digital Plus
Codec ID : A_EAC3
Duration : 48 min 9 s
Bit rate mode : Constant
Bit rate : 224 kb/s
Channel(s) : 2 channels
Channel layout : L R
Sampling rate : 48.0 kHz
Frame rate : 31.250 FPS (1536 SPF)
Compression mode : Lossy
Stream size : 77.2 MiB (3%)
Language : Korean
Service kind : Complete Main
Default : Yes
Forced : No

Text #1
ID : 3
Format : UTF-8
Codec ID : S_TEXT/UTF8
Codec ID/Info : UTF-8 Plain Text
Duration : 45 min 28 s
Bit rate : 41 b/s
Count of elements : 332
Stream size : 13.8 KiB (0%)
Language : English
Default : No
Forced : No

Text #2
ID : 4
Format : UTF-8
Codec ID : S_TEXT/UTF8
Codec ID/Info : UTF-8 Plain Text
Duration : 45 min 28 s
Bit rate : 41 b/s
Count of elements : 332
Stream size : 13.8 KiB (0%)
Title : SDH
Language : English
Default : No
Forced : No





1 个附件 售价 大小 下载 时间

North.Korea.A.Day.in.the.Life.2004.KOREAN.1080p.AMZN.WEBRip.DDP2.0.x264-TEPES.torrent 0 金币 29.78K 2569 次 1月前

#1楼
发帖时间:2021-09-17 23:02:50   |   回复数:1
wggglggg
小有名气
先下为敬
1月前 #2楼
游客组