squallzhao
一代宗师

[更 早] [其他] [其他] [WEB-1080P] 朝鲜:生活中的一天 North.Korea.A.Day.in.the.Life.2004.KOREAN.1080p.WEBRip.x264-VXT 940.52

-->

帖子完整标题:朝鲜:生活中的一天 North.Korea.A.Day.in.the.Life.2004.KOREAN.1080p.WEBRip.x264-VXT 940.52MB



◎译  名 朝鲜:生活中的一天/North Korea: A Day in the Life
◎片  名 Noord-Korea: Een dag uit het leven
◎年  代 2004
◎产  地 荷兰
◎类  别 纪录片
◎语  言 韩语
◎上映日期 2004-04-27
◎豆瓣评分 7.0/10 from 243 users
◎豆瓣链接 https://movie.douban.com/subject/1428226/
◎片  长 48 分钟

◎标  签 纪录片 | 朝鲜 | 荷兰 | 北朝鲜 | 政治 | 2004 | 荷兰电影 | 纪录

◎简  介

  一个朝鲜家庭在普通的一天里的生活。

Video
ID : 1
Format : AVC
Format/Info : Advanced Video Codec
Format profile : [email protected]
Format settings : CABAC / 4 Ref Frames
Format settings, CABAC : Yes
Format settings, Reference frames : 4 frames
Codec ID : avc1
Codec ID/Info : Advanced Video Coding
Duration : 48 min 9 s
Bit rate : 2 500 kb/s
Width : 1 920 pixels
Height : 1 080 pixels
Display aspect ratio : 16:9
Frame rate mode : Constant
Frame rate : 25.000 FPS
Color space : YUV
Chroma subsampling : 4:2:0
Bit depth : 8 bits
Scan type : Progressive
Bits/(Pixel*Frame) : 0.048
Stream size : 861 MiB (92%)
Writing library : x264 core 152 r2851M ba24899
Encoding settings : cabac=1 / ref=4 / deblock=1:-1:-1 / analyse=0x3:0x113 / me=umh / subme=9 / psy=1 / psy_rd=1.00:0.15 / mixed_ref=1 / me_range=24 / chroma_me=1 / trellis=2 / 8x8dct=1 / cqm=0 / deadzone=21,11 / fast_pskip=1 / chroma_qp_offset=-3 / threads=16 / lookahead_threads=4 / sliced_threads=0 / nr=0 / decimate=1 / interlaced=0 / bluray_compat=0 / constrained_intra=0 / bframes=3 / b_pyramid=2 / b_adapt=2 / b_bias=0 / direct=3 / weightb=1 / open_gop=0 / weightp=2 / keyint=250 / keyint_min=25 / scenecut=40 / intra_refresh=0 / rc_lookahead=50 / rc=2pass / mbtree=1 / bitrate=2500 / ratetol=1.0 / qcomp=0.60 / qpmin=0 / qpmax=69 / qpstep=4 / cplxblur=20.0 / qblur=0.5 / vbv_maxrate=31250 / vbv_bufsize=31250 / nal_hrd=none / filler=0 / ip_ratio=1.40 / aq=3:1.00
Encoded date : UTC 2021-09-17 08:49:27
Tagged date : UTC 2021-09-17 08:49:27
Codec configuration box : avcC

Audio
ID : 2
Format : AAC LC
Format/Info : Advanced Audio Codec Low Complexity
Codec ID : mp4a-40-2
Duration : 48 min 9 s
Duration_LastFrame : -11 ms
Bit rate mode : Constant
Bit rate : 224 kb/s
Channel(s) : 2 channels
Channel layout : L R
Sampling rate : 48.0 kHz
Frame rate : 46.875 FPS (1024 SPF)
Compression mode : Lossy
Stream size : 77.2 MiB (8%)
Language : Korean
Default : Yes
Alternate group : 1
Encoded date : UTC 2021-09-17 08:49:27
Tagged date : UTC 2021-09-17 08:49:27





1 个附件 售价 大小 下载 时间

North.Korea.A.Day.in.the.Life.2004.KOREAN.1080p.WEBRip.x264-VXT.torrent 0 金币 19.15K 1470 次 1月前

#1楼
发帖时间:2021-09-17 19:10:47   |   回复数:1
liyouchai
隐世仙人♂
谢谢楼主分享资源
1月前 #2楼
游客组