fg603603
武林盟主

[更 早] [欧美] [剧情] [BD-1080P] 当风吹起的时候 When.The.Wind.Blows.1986.1080p.BluRay.x264.iNTERNAL-GUACAMOLE 11.86GB

-->

帖子完整标题:当风吹起的时候 When.The.Wind.Blows.1986.1080p.BluRay.x264.iNTERNAL-GUACAMOLE 11.86GB



◎译  名 当风吹起的时候/A gdy zawieje wiatr/Cuando el viento sopla/Minne tuuli kuljettaa/Quando soffia il vento/Wenn der Wind weht
◎片  名 When the Wind Blows
◎年  代 1986
◎产  地 英国
◎类  别 剧情 / 动画 / 战争
◎语  言 英语
◎上映日期 1986-10-24(英国)
◎豆瓣评分 8.4/10 from 2148 users
◎豆瓣链接 https://movie.douban.com/subject/1308510/
◎片  长 84分钟
◎导  演 吉米·村上 Jimmy T. Murakami
◎编  剧 雷蒙德·布里格斯 Raymond Briggs
◎主  演 佩吉·阿什克罗福特 Peggy Ashcroft
      约翰·米尔斯 John Mills
      温斯顿·丘吉尔 Winston Churchill
      伯纳德·劳·蒙哥马利 Bernard L. Montgomery
      约瑟夫·斯大林 Joseph Stalin
      哈里·S·杜鲁门 Harry S. Truman
      James Russell James Russell
      David Dundas David Dundas

◎标  签 动画 | 英国 | 战争 | 当风吹起的时候 | 英国动画 | 动画片 | 英国电影 | 温馨

◎简  介

  大战爆发之前,一位老人拿着政府发的“备战小册子”回到家中,妻子一如往日的给他准备了美味的食物和奶茶。很快广播中播放战争即将开始的消息,于是老人按照小册子中的介绍开始准备搭建防空袭遮蔽帐篷......
  
  战争终于开始了,两位老人在这次空袭中幸免,他们非常乐观的等待着国家紧急救援组织的到来。他们的乐观精神带给了他们美好的故事结局了吗?国家紧急援救机构真的来救他们了吗?

Video
ID : 1
Format : AVC
Format/Info : Advanced Video Codec
Format profile : [email protected]
Format settings : CABAC / 4 Ref Frames
Format settings, CABAC : Yes
Format settings, Reference frames : 4 frames
Codec ID : V_MPEG4/ISO/AVC
Duration : 1 h 24 min
Bit rate : 17.9 Mb/s
Width : 1 440 pixels
Height : 1 080 pixels
Display aspect ratio : 4:3
Frame rate mode : Constant
Frame rate : 23.976 (24000/1001/189150) FPS
Color space : YUV
Chroma subsampling : 4:2:0
Bit depth : 8 bits
Scan type : Progressive
Bits/(Pixel*Frame) : 0.480
Stream size : 10.5 GiB (89%)
Writing library : x264 core 164 r3065 ae03d92
Encoding settings : cabac=1 / ref=4 / deblock=1:-3:-3 / analyse=0x3:0x133 / me=umh / subme=9 / psy=1 / psy_rd=1.00:0.00 / mixed_ref=1 / me_range=16 / chroma_me=1 / trellis=2 / 8x8dct=1 / cqm=0 / deadzone=21,11 / fast_pskip=0 / chroma_qp_offset=-2 / threads=24 / lookahead_threads=2 / sliced_threads=0 / nr=0 / decimate=1 / interlaced=0 / bluray_compat=0 / constrained_intra=0 / bframes=3 / b_pyramid=2 / b_adapt=2 / b_bias=0 / direct=3 / weightb=1 / open_gop=0 / weightp=2 / keyint=250 / keyint_min=23 / scenecut=40 / intra_refresh=0 / rc_lookahead=60 / rc=crf / mbtree=1 / crf=20.0 / qcomp=0.60 / qpmin=0 / qpmax=69 / qpstep=4 / ip_ratio=1.40 / aq=3:0.60
Default : Yes
Forced : No
Color range : Limited
Matrix coefficients : BT.709

Audio #1
ID : 2
Format : DTS XLL
Format/Info : Digital Theater Systems
Commercial name : DTS-HD Master Audio
Codec ID : A_DTS
Duration : 1 h 24 min
Bit rate mode : Variable
Bit rate : 2 118 kb/s
Channel(s) : 6 channels
Channel layout : C L R Ls Rs LFE
Sampling rate : 48.0 kHz
Frame rate : 93.750 FPS (512 SPF)
Bit depth : 16 bits
Compression mode : Lossless
Stream size : 1.25 GiB (11%)
Language : English
Default : Yes
Forced : No

Audio #2
ID : 3
Format : AAC LC
Format/Info : Advanced Audio Codec Low Complexity
Codec ID : A_AAC-2
Duration : 1 h 24 min
Bit rate : 69.0 kb/s
Channel(s) : 2 channels
Channel layout : L R
Sampling rate : 48.0 kHz
Frame rate : 46.875 FPS (1024 SPF)
Compression mode : Lossy
Delay relative to video : 9 ms
Stream size : 41.6 MiB (0%)
Language : English
Default : No
Forced : No

Text #1
ID : 4
Format : PGS
Muxing mode : zlib
Codec ID : S_HDMV/PGS
Codec ID/Info : Picture based subtitle format used on BDs/HD-DVDs
Duration : 1 h 16 min
Bit rate : 50.3 kb/s
Count of elements : 2207
Stream size : 27.4 MiB (0%)
Language : English
Default : No
Forced : No

Text #2
ID : 5
Format : PGS
Muxing mode : zlib
Codec ID : S_HDMV/PGS
Codec ID/Info : Picture based subtitle format used on BDs/HD-DVDs
Duration : 1 h 23 min
Bit rate : 62.5 kb/s
Count of elements : 2346
Stream size : 37.3 MiB (0%)
Language : German
Default : No
Forced : No

Text #3
ID : 6
Format : PGS
Muxing mode : zlib
Codec ID : S_HDMV/PGS
Codec ID/Info : Picture based subtitle format used on BDs/HD-DVDs
Duration : 1 h 16 min
Bit rate : 58.8 kb/s
Count of elements : 2254
Stream size : 32.1 MiB (0%)
Language : German
Default : No
Forced : No

Menu
00:00:00.000 : en:00:00:00.000
00:03:22.577 : en:00:03:22.577
00:07:52.764 : en:00:07:52.764
00:13:14.043 : en:00:13:14.043
00:18:22.935 : en:00:18:22.935
00:23:28.657 : en:00:23:28.657
00:29:34.356 : en:00:29:34.356
00:38:00.737 : en:00:38:00.737
00:43:18.304 : en:00:43:18.304
00:47:51.869 : en:00:47:51.869
00:52:45.412 : en:00:52:45.412
00:57:29.446 : en:00:57:29.446
01:04:18.021 : en:01:04:18.021
01:10:57.336 : en:01:10:57.336
01:17:49.456 : en:01:17:49.456
01:19:53.580 : en:01:19:53.580





1 个附件 售价 大小 下载 时间

When.The.Wind.Blows.1986.1080p.BluRay.x264.iNTERNAL-GUACAMOLE.torrent 0 金币 15.54K 644 次 2天前

#1楼
发帖时间:2021-09-15 14:02:53   |   回复数:0
游客组