原生系统
一派掌门

[2021] [日韩] [真人] [打包] [单身即地狱][全8集][韩语内封简繁多国软字幕][WEB/MKV][2160P(4K)][APEX][无水印网飞版]

-->


◎译  名 单身即地狱 / 欲罢不能 / 独唱 / 独角戏 / Single's Inferno / Too Hot to Handle

◎片  名 솔로지옥

◎年  代 2021

◎产  地 韩国

◎类  别 真人秀

◎语  言 韩语

◎上映日期 2021-12-18(韩国)

◎IMDb链接 https://www.imdb.com/title/tt16283666

◎豆瓣评分 7.1/10 (30174人评价)

◎豆瓣链接 https://movie.douban.com/subject/35704514

◎集  数 8

◎片  长 62~71分钟

◎演  员 洪真庆 Jin-Kyung Hong (id:1342102)

       金秀敏  (id:1466467)

       郑韩海 HANHAE (id:1466154)

       车炫承 Cha Hyun Seung (id:1465998)

       金俊植 Jun Sik Kim (id:1465997)

       崔时训 Choi Si-hun (id:1465996)

       文世勋 Sehun Moon (id:1465995)

       吴振泽 Oh Jin-taek (id:1465994)

       金贤中 Hyun-joong Kim (id:1465993)

       安艺媛 Ahn Ye Won (id:1465991)

       申芝燕 Shin Ji-yeon (id:1465990)

       姜素妍 Kang So Yeon (id:1465989)

       宋智雅 Song Jia (id:1465987)

       曺圭贤 Kyu-hyun Cho (id:1349305)

       李多熙 Da-hee Lee (id:1326710)

       成敏知 Seong min ji (id:1466468)


◎简  介


  俊男美女被困“地狱岛”,逃离方法只有一个:每晚与某人成为情侣。配对成功的人当晚可搬去“天堂岛”,享受优质食物和住宿,而未找到伴的人,晚上得在“地狱岛”自力更生。


Video
ID : 1
Format : HEVC
Format/Info : High Efficiency Video Coding
Format profile : Main [email protected]@Main
Codec ID : V_MPEGH/ISO/HEVC
Duration : 1 h 11 min
Bit rate : 11.8 Mb/s
Width : 3 840 pixels
Height : 2 160 pixels
Display aspect ratio : 16:9
Frame rate mode : Constant
Frame rate : 23.976 (24000/1001) FPS
Color space : YUV
Chroma subsampling : 4:2:0
Bit depth : 10 bits
Bits/(Pixel*Frame) : 0.060
Stream size : 5.93 GiB (95%)
Default : Yes
Forced : No
Color range : Limited
Color primaries : BT.709
Transfer characteristics : BT.709
Matrix coefficients : BT.709

Audio
ID : 2
Format : E-AC-3
Format/Info : Enhanced AC-3
Commercial name : Dolby Digital Plus
Codec ID : A_EAC3
Duration : 1 h 11 min
Bit rate mode : Constant
Bit rate : 640 kb/s
Channel(s) : 6 channels
Channel layout : L R C LFE Ls Rs
Sampling rate : 48.0 kHz
Frame rate : 31.250 FPS (1536 SPF)
Compression mode : Lossy
Stream size : 329 MiB (5%)
Language : Korean
Service kind : Complete Main
Default : Yes
Forced : No

Text #1

......

Text #37
ID : 39
Format : UTF-8
Codec ID : S_TEXT/UTF8
Codec ID/Info : UTF-8 Plain Text
Duration : 1 h 10 min
Bit rate : 79 b/s
Frame rate : 0.324 FPS
Count of elements : 1365
Stream size : 40.9 KiB (0%)
Title : Simplified
Language : Chinese
Default : No
Forced : No

Text #38
ID : 40
Format : UTF-8
Codec ID : S_TEXT/UTF8
Codec ID/Info : UTF-8 Plain Text
Duration : 1 h 10 min
Bit rate : 80 b/s
Frame rate : 0.323 FPS
Count of elements : 1363
Stream size : 41.2 KiB (0%)
Title : Traditional
Language : Chinese
Default : No
Forced : No


本人发布的种子请使用专业BT下载工具:

UT,Bitcomet,qBittorrent,Xdown开启上传后再下载!!!

使用迅雷或网盘离线可能会没速度!!!


视频的网盘资源均修改了视频后缀(如mp4或mkv)修改为.PDF,用以混淆官方视听!
并且加密了文件名,设置了独有的解压密码,请使用WinRAR解压,使用好压或其他可能会出错!!

网盘版所有压缩包下载完毕后解压第一个包即可全部解压(有些可能有解压密码),解压后自行将后缀名“PDF”修改为“mp4或者mkv”后即可正常播放!!!


已完结剧集不再分集打包上传,整体打包后分卷,无法单独下载某一集,需要全部下载后一起解压,敬请知晓!!!
请各位下载的坛友先保存至自己的网盘,然后再进行下载!
不要直接在线观看或者解压,否则会很快被网盘官方发觉并和谐!!

网盘版资源一旦和谐,皆不会免费补档,请谨慎举报资源!!!


请下载完成的朋友自觉做种一段时间,小水管出种不易,且下且珍惜,谢谢!!!


1 个附件 售价 大小 下载 时间

Singles.Inferno.2021.Complete.2160P(4K).NF.WEB-DL.X265.10bit.SDR.DDP5.1-APEX.rar 0 金币 968.55K 6335 次 1月前

#1楼
发帖时间:2022-11-29 12:51:02   |   回复数:0
游客组